#TITLE:Visual Dream;
#SUBTITLE:Expi3nze & sdo;
#ARTIST:SNSD;
#TITLETRANSLIT:;
#SUBTITLETRANSLIT:;
#ARTISTTRANSLIT:;
#CREDIT:;
#BANNER:bn.png;
#BACKGROUND:bg.png;
#LYRICSPATH:;
#CDTITLE:cdtitle.png;
#MUSIC:Visual Dream.mp3;
#OFFSET:-0.258;
#SAMPLESTART:57.052;
#SAMPLELENGTH:21.985;
#SELECTABLE:YES;
#BPMS:0.000=131.003,1.000=130.997,2.000=131.003,3.000=130.997,4.000=131.003,5.000=130.997,6.000=131.003,7.000=130.997,8.000=131.003,9.000=130.997,10.000=131.003,11.000=130.997,12.000=131.003,13.000=130.997,14.000=131.003,15.000=130.997,16.000=131.003,17.000=130.997,18.000=131.003,20.000=130.997,21.000=131.003,22.000=130.997,23.000=131.003,24.000=130.997,25.000=131.003,26.000=130.997,27.000=131.003,28.000=130.997,29.000=131.003,30.000=130.997,31.000=131.003,32.000=130.997,33.000=131.003,34.000=130.997,35.000=131.003,36.000=130.997,37.000=131.003,39.000=130.997,40.000=131.003,41.000=130.997,42.000=131.003,43.000=130.997,44.000=131.003,45.000=130.997,46.000=131.003,47.000=130.997,48.000=131.003,49.000=130.997,50.000=131.003,51.000=130.997,52.000=131.003,53.000=130.997,54.000=131.003,55.000=130.997,56.000=131.003,58.000=130.997,59.000=131.003,60.000=130.997,61.000=131.003,62.000=130.997,63.000=131.003,64.000=130.997,65.000=131.003,66.000=130.997,67.000=131.003,68.000=130.997,69.000=131.003,70.000=130.997,71.000=131.003,72.000=130.997,73.000=131.003,74.000=130.997,75.000=131.003,77.000=130.997,78.000=131.003,79.000=130.997,80.000=131.003,81.000=130.997,82.000=131.003,83.000=130.997,84.000=131.003,85.000=130.997,86.000=131.003,87.000=130.997,88.000=131.003,89.000=130.997,90.000=131.003,91.000=130.997,92.000=131.003,93.000=130.997,94.000=131.003,96.000=130.997,97.000=131.003,98.000=130.997,99.000=131.003,100.000=130.997,101.000=131.003,102.000=130.997,103.000=131.003,104.000=130.997,105.000=131.003,106.000=130.997,107.000=131.003,108.000=130.997,109.000=131.003,110.000=130.997,111.000=131.003,112.000=130.997,113.000=131.003,114.000=130.997,115.000=131.003,117.000=130.997,118.000=131.003,119.000=130.997,120.000=131.003,121.000=130.997,122.000=131.003,123.000=130.997,124.000=131.003,125.000=130.997,126.000=131.003,127.000=130.997,128.000=131.003,129.000=130.997,130.000=131.003,131.000=130.997,132.000=131.003,134.000=130.997,135.000=131.003,136.000=130.997,137.000=131.003,138.000=130.997,139.000=131.003,140.000=130.997,141.000=131.003,142.000=130.997,143.000=131.003,144.000=130.997,145.000=131.003,146.000=130.997,147.000=131.003,148.000=130.997,149.000=131.003,150.000=130.997,151.000=131.003,153.000=130.997,154.000=131.003,155.000=130.997,156.000=131.003,157.000=130.997,158.000=131.003,159.000=130.997,160.000=131.003,161.000=130.997,162.000=131.003,163.000=130.997,164.000=131.003,165.000=130.997,166.000=131.003,167.000=130.997,168.000=131.003,169.000=130.997,170.000=131.003,172.000=130.997,173.000=131.003,174.000=130.997,175.000=131.003,176.000=130.997,177.000=131.003,178.000=130.997,179.000=131.003,180.000=130.997,181.000=131.003,182.000=130.997,183.000=131.003,184.000=130.997,185.000=131.003,186.000=130.997,187.000=131.003,188.000=130.997,189.000=131.003,191.000=130.997,192.000=131.003,193.000=130.997,194.000=131.003,195.000=130.997,196.000=131.003,197.000=130.997,198.000=131.003,199.000=130.997,200.000=131.003,201.000=130.997,202.000=131.003,203.000=130.997,204.000=131.003,205.000=130.997,206.000=131.003,207.000=130.997,208.000=131.003,209.000=130.997,210.000=131.003,211.000=130.997,212.000=131.003,214.000=130.997,215.000=131.003,216.000=130.997,217.000=131.003,218.000=130.997,219.000=131.003,220.000=130.997,221.000=131.003,222.000=130.997,223.000=131.003,224.000=130.997,225.000=131.003,226.000=130.997,227.000=131.003,228.000=130.997,229.000=131.003,230.000=130.997,231.000=131.003,233.000=130.997,234.000=131.003,235.000=130.997,236.000=131.003,237.000=130.997,238.000=131.003,239.000=130.997,240.000=131.003,241.000=130.997,242.000=131.003,243.000=130.997,244.000=131.003,245.000=130.997,246.000=131.003,247.000=130.997,248.000=131.003,250.000=130.997,251.000=131.003,252.000=130.997,253.000=131.003,254.000=130.997,255.000=131.003,256.000=130.997,257.000=131.003,258.000=130.997,259.000=131.003,260.000=130.997,261.000=131.003,262.000=130.997,263.000=131.003;
#STOPS:;
#BGCHANGES:;
// cache tags:
#FIRSTBEAT:8.000;
#LASTBEAT:260.500;
#SONGFILENAME:songs/SDO Latino/Visual Dream (SNSD)/Visual Dream.sm;
#HASMUSIC:1;
#HASBANNER:1;
#MUSICLENGTH:121.268;
// end cache tags

//---------------dance-single - ----------------
#NOTES:
     dance-single:
     :
     Hard:
     16:
     1.000,1.000,1.000,0.198,0.186,473.000,326.000,24.000,0.000,133.000:
0000
0000
0000
0000
,
0000
0000
0000
0000
,
0100
0100
0100
0100
0010
0010
0010
0010
1000
1000
1000
1000
0001
0001
0001
0001
,
1110
0000
1110
0000
0111
0000
0111
1010
,
1101
0011
1110
1001
0111
1010
1101
0101
,
1011
0000
1110
0000
0111
0000
1011
1001
,
1110
1010
0111
0101
1010
0110
1001
0011
,
1110
0000
1101
0000
0111
0000
1011
1100
,
0111
0011
1110
1100
0011
1100
0011
1100
,
0111
0011
1110
1001
0101
0000
1010
0101
,
1100
0011
1100
0000
0111
0011
1100
1100
,
1011
0011
0110
1101
1010
0101
1100
1001
,
0111
0000
1000
0011
0100
0000
1011
0000
0000
0000
0011
0000
1100
0000
0011
0000
,
1101
0101
1010
1011
1100
1001
0110
1010
,
1101
0000
0010
1100
0001
0000
1110
0000
0000
0000
1100
0000
0011
0100
0011
0000
,
1110
0101
0010
1110
0000
0001
0100
0000
,
1011
0100
0100
1011
0000
0011
1100
0011
,
0111
1010
0100
1101
0010
1000
0001
0000
,
0111
0000
1000
0000
1000
0000
0111
0000
0000
0000
0010
0000
0100
0010
0000
0000
,
1101
0010
0101
1011
0100
0010
1001
0001
,
1110
0000
0001
0100
1010
0000
1101
0000
0000
0000
0101
0000
1000
0000
0110
0000
,
1101
0010
1001
1011
0100
0100
0011
1000
,
0111
0000
0000
1110
0000
0000
1011
0000
0000
0000
1100
0000
0010
0000
1100
0000
,
1011
0001
0110
1101
0000
0010
0101
0000
,
1110
0000
0110
0111
0000
1010
0100
1001
,
0111
0010
0101
1110
0000
0001
0110
1000
,
0111
1000
0110
1011
0001
0110
1010
1001
,
0110
0000
0000
0000
1001
0000
0011
0000
1000
0000
0110
0000
1010
0000
0001
0010
,
0101
0001
1100
1001
0010
0101
1010
0101
,
0000
1010
0000
0100
0011
0001
0000
2010
,
0001
0000
0000
0010
0000
0000
0100
0000
0000
0010
0000
0000
0100
0000
0000
0010
0000
0000
0001
0000
0000
0010
0000
0000
0100
0000
0000
0001
0000
0000
0010
0000
0000
0100
0000
0000
0001
0000
0000
0000
0000
0000
0000
0000
0000
0000
3000
0000
,
0111
0000
0111
0000
1110
0000
1110
0101
,
1011
0011
1101
1010
0111
0101
1101
1001
,
0111
0000
1110
0000
1011
0000
1110
0101
,
1011
1010
0111
0011
1110
1001
0111
1010
,
0111
0000
1110
0000
0111
0000
1110
0101
,
1011
0101
1110
1001
0111
0011
1110
0101
,
1011
1010
1101
0101
1110
0000
1111
0011
,
1100
0000
0000
0000
0000
0000
0011
0000
0000
0000
0000
0000
1100
0000
0000
0000
0000
0000
0002
0000
0000
0000
0000
0000
0000
0000
0000
0200
0000
0000
0000
0000
0000
0000
0000
0000
2000
0000
0000
0000
0000
0000
0000
0000
0000
0000
3303
0000
,
0010
0000
0010
0000
1100
0000
0010
1100
0011
0000
0011
0000
1100
0000
0101
0000
,
0000
0000
1010
0000
0011
0000
0100
0011
1100
0000
1001
0000
0101
0000
0000
1100
,
0011
1100
0011
0000
1100
0000
0001
0110
1001
0000
1001
0000
0110
0000
1010
0000
,
0000
0000
0011
0000
0000
0000
1110
0000
0001
0010
0100
0010
1000
0100
0010
0001
,
1110
0000
1100
0000
0011
0000
0100
1010
0011
0000
1100
0000
0011
1000
0110
0001
,
0100
0000
1010
0000
1001
0000
0010
1100
0011
0000
1110
0000
1101
0000
0000
0011
,
1100
0000
0011
0000
1100
0000
0010
0101
1001
0000
0011
0000
1100
0000
0011
0000
,
0000
0000
1110
0000
0000
0000
0111
0000
1000
0100
0010
0001
1000
0100
0020
0100
,
1001
0000
1001
0000
1001
0000
0100
1100
,
0101
0000
0000
0101
0000
0000
1001
0000
0000
1001
0000
0000
0100
0000
0000
0101
0000
0030
1100
0000
0000
2001
0000
0000
,
0101
0000
0000
0000
0000
0000
0110
0000
0000
0000
0000
0000
0110
0000
0000
0000
0000
3000
0100
0000
0000
0012
0000
0000
,
0110
0000
0000
0110
0000
0000
1010
0000
0000
1010
0000
0000
0100
0000
0000
1010
0000
0000
1010
0000
0000
1010
0000
0003
,
1210
0000
0000
0010
0000
0000
1011
0000
0300
0020
0000
0000
1101
0000
0000
0001
0000
0030
2101
0000
0000
0110
0000
0000
,
0111
0000
3000
0012
0000
0000
1110
0000
0000
0110
0000
0003
1210
0000
0000
0011
0000
0000
1011
0000
0000
1010
0000
0300
,
0011
1100
0101
1010
0101
0010
1100
0011
,
0110
1001
0110
1000
0010
0100
1000
0001
,
0110
1000
0101
0001
1010
0100
1001
0020
,
0101
0000
0000
0000
0030
0000
0001
0000
0000
2000
0000
0000
0110
0000
0000
0000
3000
0000
0002
0000
0000
0000
0000
0000
0110
0000
0000
0000
0003
0000
1200
0000
0000
0000
0000
0000
0011
0000
0000
0000
0300
0000
1010
0000
0000
0001
0000
0000
,
1010
0001
0101
0100
1001
0000
1100
0020
,
1001
0000
0030
2000
0000
0000
0101
0000
3000
0002
0000
0000
0110
0000
0003
1200
0000
0000
1010
0000
0000
1010
0000
0300
,
0011
1000
0110
0010
0101
1000
1010
0001
,
1100
0010
1001
1000
0101
0001
1010
0100
,
1010
0001
0110
1000
0101
0010
0101
0010
,
1100
0000
0011
0000
1100
0000
0000
0000
0101
0000
0000
0000
0000
0000
1000
0010
,
0202
0000
0000
0000
0000
0000
0000
0000
0000
0000
0000
0000
0000
0000
0000
0000
0000
0000
0000
0000
0000
0000
0000
0000
0000
0000
0000
0000
0000
0000
0010
0000
0000
1000
0303
0000
2020
0000
0000
0000
0000
0000
0000
0000
0000
0000
0000
0000
,
0000
0000
0000
0000
,
0000
3030
0000
0000
0000
0000
0000
0000
,
0000
0000
0000
0000
;
